+ ShareSpark.net »  :::: Dubbed Zone (Dubbed English in Hindi) » English Movies Dubbed in Hindi » Animation Movies
|- Moana 2016 1080p BluRay x264 Dual-Audio[English DTS-HD MA 7.1][Hindi(Org) DD5.1] - Hon3y-12.7 GB


Mastercard 10% Off

Moana 2016 1080p BluRay x264 Dual-Audio[English DTS-HD MA 7.1][Hindi(Org) DD5.1] - Hon3y-12.7 GB

0 Members and 1 Guest are viewing this topic.

March 23, 2017, 11:11:27 AM
  • Global Moderator
  • Legend Member
  • *****
  • Topic Author
  • Thank You: 11275
  • Reputation: 2260
  • Activity:
    100%
  • Country: in
  • Posts: 5480
  • Topics: 4524
  • Join Date: Jan 2014
  • ıllıllı ѕмoĸιng ιѕ good ғor нealтн ıllıllı :)





Moana 2016 1080p BluRay x264 Dual-Audio[English DTS-HD MA 7.1][Hindi(Org) DD5.1] - Hon3y-12.7 GB

Quote
GeneralGeneral
Format                      : Matroska
Format version              : Version 4 / Version 2
File size                   : 12.5 GiB
Duration                    : 1 h 47 min
Overall bit rate            : 16.7 Mb/s
Movie name                  : Hon3yHD

Video
Format                      : AVC
Format/Info                 : Advanced Video Codec
Format profile              : [email protected]
Format settings, CABAC      : Yes
Format settings, ReFrames   : 5 frames
Codec ID                    : V_MPEG4/ISO/AVC
Duration                    : 1 h 47 min
Bit rate                    : 11.3 Mb/s
Width                       : 1 920 pixels
Height                      : 804 pixels
Display aspect ratio        : 2.40:1
Frame rate mode             : Constant
Frame rate                  : 23.976 (24000/1001) FPS
Color space                 : YUV
Chroma subsampling          : 4:2:0
Bit depth                   : 8 bits
Scan type                   : Progressive
Bits/(Pixel*Frame)          : 0.305
Stream size                 : 8.46 GiB (68%)
Title                       : W3apoƝ-✘...Hon3yHD

Audio #1
Format                      : DTS
Format/Info                 : Digital Theater Systems
Format profile              : MA / Core
Mode                        : 16
Format settings, Endianness : Big
Codec ID                    : A_DTS
Duration                    : 1 h 47 min
Bit rate mode               : Variable / Constant
Bit rate                    : 4 730 kb/s / 1 509 kb/s
Channel(s)                  : 8 channels / 6 channels
Channel positions           : Front: L C R, Side: L R, Back: L R, LFE / Front: L C R, Side: L R, LFE
Sampling rate               : 48.0 kHz
Frame rate                  : 93.750 FPS (512 spf)
Bit depth                   : 24 bits
Compression mode            : Lossless / Lossy
Stream size                 : 3.54 GiB (28%)
Title                       : English DTS-HD MA 7.1---W3apoƝ-✘...Hon3yHD
Language                    : English

Hindi Audios Credits :Snowdon - Thanks Bro


Audio #2
Format                      : AC-3
Format/Info                 : Audio Coding 3
Mode extension              : CM (complete main)
Format settings, Endianness : Big
Codec ID                    : A_AC3
Duration                    : 1 h 47 min
Bit rate mode               : Constant
Bit rate                    : 640 kb/s
Channel(s)                  : 6 channels
Channel positions           : Front: L C R, Side: L R, LFE
Sampling rate               : 48.0 kHz
Frame rate                  : 31.250 FPS (1536 spf)
Bit depth                   : 16 bits
Compression mode            : Lossy
Stream size                 : 491 MiB (4%)
Title                       : हिन्दी [Hindi] Org BluRay Audio Dolby Digital 5.1 640 Kbps---W3apoƝ-✘...Hon3yHD
Language                    : Hindi

Text #2
Format                      : PGS
Muxing mode                 : zlib
Codec ID                    : S_HDMV/PGS
Codec ID/Info               : Picture based subtitle format used on BDs/HD-DVDs
Duration                    : 1 h 45 min
Bit rate                    : 9 682 b/s
Count of elements           : 2692
Stream size                 : 7.31 MiB (0%)
Title                       : English---W3apoƝ-✘...Hon3yHD
Language                    : English

Text #3
Format                      : PGS
Muxing mode                 : zlib
Codec ID                    : S_HDMV/PGS
Codec ID/Info               : Picture based subtitle format used on BDs/HD-DVDs
Duration                    : 1 h 45 min
Bit rate                    : 8 855 b/s
Count of elements           : 2468
Stream size                 : 6.69 MiB (0%)
Title                       : English---W3apoƝ-✘...Hon3yHD
Language                    : English

Menu
00:00:00.000                : :Chapter 01
00:07:15.685                : :Chapter 02
00:11:59.802                : :Chapter 03
00:16:13.764                : :Chapter 04
00:21:29.579                : :Chapter 05
00:28:02.806                : :Chapter 06
00:32:11.346                : :Chapter 07
00:35:16.280                : :Chapter 08
00:41:36.869                : :Chapter 09
00:45:04.868                : :Chapter 10
00:49:10.322                : :Chapter 11
00:53:21.031                : :Chapter 12
00:57:33.324                : :Chapter 13
01:05:45.024                : :Chapter 14
01:10:46.075                : :Chapter 15
01:12:52.117                : :Chapter 16
01:15:41.954                : :Chapter 17
01:23:17.075                : :Chapter 18
01:29:50.927                : :Chapter 19
01:36:13.726                : :Chapter 20
01:47:12.551                : :Chapter 21















Quote



:Splitted Parts:

Part 1

Quote




Part 2

Quote




Part 3

Quote




Part 4

Quote




Part 5

Quote




Part 6

Quote




Part 7

Quote







Don't walk as you are king, walk as you don't care who the king is....!!
Never argue with an idiot. They drag you down to their level and then beat you with experience?

Share this topic on FacebookShare this topic on GoogleShare this topic on MySpaceShare this topic on TwitterShare this topic on Yahoo

« Last Edit: March 23, 2017, 12:02:12 PM by Rάήνίјάч1234 »



Don't walk as you are king, walk as you don't care who the king is....!!

Thanks given by:


October 23, 2018, 07:00:35 PM
Reply #1
  • Senior Member
  • ***
  • Thank You: 4
  • Reputation: 1
  • Activity:
    16.8%
  • Country: pk
  • Posts: 219
  • Topics: 7
  • Join Date: Mar 2013
  • ShareSpark Member
CAN SOMEONE PLEASE UPLOAD TO GDRIVE OR MEGA?
TORRENT WILL ALSO WORK.

AWESOME RELEASE..THANKS
 :10on10: :thank: :bravo: :rep:

Tags:
 

Related Topics





Back to top
Enrique Iglesias - Escape (2003) | EUR 652,56 nuevo (1 oferta) | Read More