+ ShareSpark.net »  :::: Dubbed Zone (Dubbed English in Hindi) » English Movies Dubbed in Hindi » Animation Movies
|- Ballerina 2016 x264 720p Esub BluRay Dual Audio English Hindi GOPISAHI


HDFC 10% Off

Ballerina 2016 x264 720p Esub BluRay Dual Audio English Hindi GOPISAHI

0 Members and 1 Guest are viewing this topic.

August 28, 2018, 01:31:15 PM
  • ***************
  • Team SSX
  • Legend Member
  • ***
  • Topic Author
  • Thank You: 1820
  • Reputation: 552
  • Activity:
    100%
  • Country: pk
  • Posts: 1925
  • Topics: 1211
  • Join Date: Mar 2015
  • =$ Success Never Ends $=
Ballerina 2016 x264 720p Esub BluRay Dual Audio English Hindi GOPISAHI










Format : Matroska
Format version : Version 4 / Version 2
File size : 570 MiB
Duration : 1 h 29 min
Overall bit rate : 895 kb/s
Movie name : Ballerina 2016 GOPISAHI

Video
Format : AVC
Format/Info : Advanced Video Codec
Format profile : [email protected]
Codec ID : V_MPEG4/ISO/AVC
Duration : 1 h 29 min
Bit rate : 699 kb/s
Width : 1 280 pixels
Height : 544 pixels
Display aspect ratio : 2.35:1
Frame rate mode : Constant
Frame rate : 24.000 FPS
Color space : YUV
Chroma subsampling : 4:2:0
Bit depth : 8 bits
Scan type : Progressive
Bits/(Pixel*Frame) : 0.042
Stream size : 445 MiB (78%)
Title : GOPISAHI
Writing library : x264 core 155 r2901 7d0ff22

Audio #1
Format : AAC
Format/Info : Advanced Audio Codec
Duration : 1 h 29 min
Bit rate : 96.0 kb/s
Channel(s) : 2 channels
Channel positions : Front: L R
Sampling rate : 48.0 kHz
Frame rate : 46.875 FPS (1024 SPF)
Compression mode : Lossy
Delay relative to video : -64 ms
Stream size : 61.8 MiB (11%)
Title : GOPISAHI
Language : Hindi

Audio #2
Format : AAC
Format/Info : Advanced Audio Codec
Duration : 1 h 29 min
Bit rate : 96.0 kb/s
Channel(s) : 2 channels
Channel positions : Front: L R
Sampling rate : 48.0 kHz
Frame rate : 46.875 FPS (1024 SPF)
Compression mode : Lossy
Delay relative to video : -64 ms
Stream size : 61.3 MiB (11%)
Title : GOPISAHI
Language : English

Text
Language : English






 :ss:














 :download:
























Share this topic on FacebookShare this topic on GoogleShare this topic on MySpaceShare this topic on TwitterShare this topic on Yahoo




Tags:
 

Related Topics





Back to top
Bornozlar | last 6 months | Kontakte