+ ShareSpark.net »  :::: Dubbed Zone (Dubbed English in Hindi) » English Movies Dubbed in Hindi » Animation Movies
|- Lego Marvel Super Heroes Black Panther Trouble In Wakanda 2018 x264 720p Esub BluRay Dual Audio Engl


TV and Appliances

Lego Marvel Super Heroes Black Panther Trouble In Wakanda 2018 x264 720p Esub BluRay Dual Audio Engl

0 Members and 1 Guest are viewing this topic.

August 29, 2018, 03:27:34 PM
  • ***************
  • Team SSX
  • Legend Member
  • ***
  • Topic Author
  • Thank You: 1820
  • Reputation: 552
  • Activity:
    100%
  • Country: pk
  • Posts: 1925
  • Topics: 1211
  • Join Date: Mar 2015
  • =$ Success Never Ends $=
Lego Marvel Super Heroes Black Panther Trouble In Wakanda 2018 x264 720p Esub BluRay Dual Audio English Hindi GOPISAHI








Format : Matroska
Format version : Version 4 / Version 2
File size : 125 MiB
Duration : 22 min 2 s
Overall bit rate : 795 kb/s

Video
Format : AVC
Format/Info : Advanced Video Codec
Format settings, ReFrames : 16 frames
Codec ID : V_MPEG4/ISO/AVC
Duration : 22 min 2 s
Bit rate : 599 kb/s
Width : 1 280 pixels
Height : 720 pixels
Display aspect ratio : 16:9
Frame rate mode : Constant
Frame rate : 23.976 (24000/1001) FPS
Color space : YUV
Chroma subsampling : 4:2:0
Bit depth : 8 bits
Scan type : Progressive
Bits/(Pixel*Frame) : 0.027
Stream size : 94.6 MiB (75%)
Title : GOPISAHI
Writing library : x264 core 155 r2901 7d0ff22

Audio #1
Format : AAC
Format/Info : Advanced Audio Codec
Duration : 22 min 2 s
Bit rate : 96.0 kb/s
Channel(s) : 2 channels
Channel positions : Front: L R
Sampling rate : 48.0 kHz
Frame rate : 46.875 FPS (1024 SPF)
Compression mode : Lossy
Delay relative to video : -21 ms
Stream size : 15.2 MiB (12%)
Title : GOPISAHI
Language : Hindi

Audio #2
Format : AAC
Format/Info : Advanced Audio Codec
Duration : 22 min 2 s
Bit rate : 96.0 kb/s
Channel(s) : 2 channels
Channel positions : Front: L R
Sampling rate : 48.0 kHz
Frame rate : 46.875 FPS (1024 SPF)
Compression mode : Lossy
Delay relative to video : -21 ms
Stream size : 15.2 MiB (12%)
Title : GOPISAHI
Language : English

Text
Language : English




 :ss:












 :download:























Share this topic on FacebookShare this topic on GoogleShare this topic on MySpaceShare this topic on TwitterShare this topic on Yahoo




Tags:
 

Related Topics





Back to top
23.03.1819:01 Uhr Michelle - In 80 Kuessen Um Die Welt Pop-Schlager320 kbit/s 0 / 09.575 Hits VID P2P DDL 0 Kommentare | Batterie camping car 12v 130ah à decharge lente haut de gamme prête à l'emploi | USB Alet