+ ShareSpark.net »  :::: Dubbed Zone (Dubbed English in Hindi) » English Movies Dubbed in Hindi » Animation Movies
|- Incredibles 2 2018 1080p WEB-DL x264 Dual Audio [Hindi Cam- English] ESub [MW]


TV and Appliances

Incredibles 2 2018 1080p WEB-DL x264 Dual Audio [Hindi Cam- English] ESub [MW]

0 Members and 1 Guest are viewing this topic.

October 23, 2018, 01:19:45 PM
  • ***************
  • Team SSX
  • Legend Member
  • ***
  • Topic Author
  • Thank You: 1820
  • Reputation: 552
  • Activity:
    100%
  • Country: pk
  • Posts: 1925
  • Topics: 1211
  • Join Date: Mar 2015
  • =$ Success Never Ends $=
Incredibles 2 2018 1080p WEB-DL x264 Dual Audio [Hindi(Cam) - English] ESub [MW]










General
Format : Matroska
Format version : Version 4 / Version 2
File size : 1.84 GiB
Duration : 1 h 57 min
Overall bit rate : 2 241 kb/s

Video
ID : 1
Format : AVC
Format/Info : Advanced Video Codec
Format profile : [email protected]
Format settings : CABAC / 4 Ref Frames
Format settings, CABAC : Yes
Format settings, RefFrames : 4 frames
Codec ID : V_MPEG4/ISO/AVC
Duration : 1 h 57 min
Bit rate : 2 000 kb/s
Width : 1 920 pixels
Height : 804 pixels
Display aspect ratio : 2.40:1
Frame rate mode : Constant
Frame rate : 23.976 (24000/1001) FPS
Color space : YUV
Chroma subsampling : 4:2:0
Bit depth : 8 bits
Scan type : Progressive
Bits/(Pixel*Frame) : 0.054
Stream size : 1.63 GiB (89%)
Writing library : x264 core 155 r2901 7d0ff22
Default : Yes
Forced : No

Audio #1
ID : 2
Format : AAC
Format/Info : Advanced Audio Codec
Format profile : LC
Codec ID : A_AAC-2
Duration : 1 h 57 min
Bit rate : 128 kb/s
Channel(s) : 2 channels
Channel positions : Front: L R
Sampling rate : 48.0 kHz
Frame rate : 46.875 FPS (1024 SPF)
Compression mode : Lossy
Stream size : 108 MiB (6%)
Language : Hindi
Default : No
Forced : No

Audio #2
ID : 3
Format : AAC
Format/Info : Advanced Audio Codec
Format profile : HE-AAC / LC
Format settings : Explicit
Codec ID : A_AAC-2
Duration : 1 h 57 min
Bit rate : 127 kb/s
Channel(s) : 2 channels
Channel positions : Front: L R
Sampling rate : 48.0 kHz / 24.0 kHz
Frame rate : 23.438 FPS (1024 SPF)
Compression mode : Lossy
Stream size : 107 MiB (6%)
Language : English
Default : No
Forced : No

Text
ID : 4
Format : UTF-8
Codec ID : S_TEXT/UTF8
Codec ID/Info : UTF-8 Plain Text
Duration : 1 h 54 min
Bit rate : 124 b/s
Count of elements : 2325
Stream size : 105 KiB (0%)
Language : English
Default : Yes
Forced : No





 :ss:















 :download:


























Share this topic on FacebookShare this topic on GoogleShare this topic on MySpaceShare this topic on TwitterShare this topic on Yahoo

« Last Edit: October 24, 2018, 12:15:28 AM by Zohaib Ch »


Thanks given by:


October 23, 2018, 03:00:31 PM
Reply #1
  • Devoted Member
  • **
  • Thank You: 0
  • Reputation: 2
  • Activity:
    0.8%
  • Posts: 184
  • Topics: 0
  • Join Date: Jul 2012
  • ShareSpark Member

Tags:
 

Related Topics





Back to top
Black Clover (TV) Episode 46 English Sub | Trío. La búsqueda del Santuario Sagrado (2017) Full Micro HD Gratis | Восстановленные правила