+ ShareSpark.net »  :::: Bollywood Zone » Indian TV Shows
|- Dance + S4.2018.Episode.10.720p UntoucheD WEB HD - AVC - AAC - DTOne


10% SBI and 10% Discount

Dance + S4.2018.Episode.10.720p UntoucheD WEB HD - AVC - AAC - DTOne

0 Members and 1 Guest are viewing this topic.

November 17, 2018, 04:47:10 AM
  • Elite Forces
  • ****
  • Topic Author
  • Thank You: 244
  • Reputation: 105
  • Activity:
    8.6%
  • Country: sa
  • Posts: 1174
  • Topics: 130
  • Join Date: Jan 2017
  • ShareSpark Member
Dance + S4.2018.Episode.10.720p UntoucheD WEB HD - AVC - AAC - DTOne



Video
ID  : 1
Format   : AVC
Format/Info   : Advanced Video Codec
Format profile   : [email protected]
Format settings    : CABAC / 1 Ref Frames
Format settings, CABAC      : Yes
Format settings, ReFrames   : 1 frame
Format settings, GOP   : M=1, N=100
Codec ID   : avc1
Codec ID/Info  : Advanced Video Coding
Duration  : 1 h 4 min
Bit rate mode   : Constant
Bit rate   : 2 000 kb/s
Width   : 1 280 pixels
Height  : 720 pixels
Display aspect ratio   : 16:9
Frame rate mode   : Constant
Frame rate   : 25.000 FPS
Color space  : YUV
Chroma subsampling   : 4:2:0
Bit depth   : 8 bits
Scan type   : Progressive
Bits/(Pixel*Frame)  : 0.087
Stream size   : 926 MiB (97%)
Codec configuration box  : avcC

Audio
ID   : 2
Format   : AAC LC
Format/Info   : Advanced Audio Codec Low Complexity
Codec ID   : mp4a-40-2
Duration  : 1 h 4 min
Bit rate mode   : Variable
Bit rate  : 61.4 kb/s
Maximum bit rate   : 64.1 kb/s
Channel(s)   : 2 channels
Channel layout  : L R
Sampling rate   : 48.0 kHz
Frame rate   : 46.875 FPS (1024 SPF)
Compression mode   : Lossy
Stream size  : 28.4 MiB (3%)
Default   : Yes
Alternate group  : 1





Share this topic on FacebookShare this topic on GoogleShare this topic on MySpaceShare this topic on TwitterShare this topic on Yahoo



Thanks given by:


Tags:
 

Related Topics

  Subject / Started by Replies Last post
0 Replies
321 Views
Last post October 30, 2018, 10:00:00 AM
by Vagabond
0 Replies
152 Views
Last post October 31, 2018, 07:43:02 PM
by Vagabond
0 Replies
224 Views
Last post November 01, 2018, 11:56:42 AM
by Vagabond
0 Replies
122 Views
Last post November 21, 2018, 06:58:40 AM
by Vagabond
0 Replies
82 Views
Last post November 27, 2018, 07:16:53 AM
by Vagabond




Back to top
Futari Ecchi (2014) | Fragmentado | com.linecorp.tgo.me