+ ShareSpark.net »  :::: Bollywood Zone » Indian TV Shows
|- DANCE + S4 (2018) 720P - UNTOUCHED WEB HD EPISODE 11 - AVC - AAC - DTONE EXCLUSIVE


Samsung Galaxy 8

DANCE + S4 (2018) 720P - UNTOUCHED WEB HD EPISODE 11 - AVC - AAC - DTONE EXCLUSIVE

0 Members and 1 Guest are viewing this topic.

November 21, 2018, 06:58:40 AM
  • Elite Forces
  • ****
  • Topic Author
  • Thank You: 244
  • Reputation: 105
  • Activity:
    8.6%
  • Country: sa
  • Posts: 1174
  • Topics: 130
  • Join Date: Jan 2017
  • ShareSpark Member
DANCE + S4 (2018) 720P - UNTOUCHED WEB HD EPISODE 11 - AVC - AAC - DTONE EXCLUSIVE




Video
ID     : 1
Format   : AVC
Format/Info    : Advanced Video Codec
Format profile    : [email protected]
Format settings   : CABAC / 1 Ref Frames
Format settings, CABAC      : Yes
Format settings, ReFrames   : 1 frame
Codec ID   : V_MPEG4/ISO/AVC
Duration    : 1 h 3 min
Bit rate mode   : Constant
Bit rate   : 2 000 kb/s
Width    : 1 280 pixels
Height   : 720 pixels
Display aspect ratio   : 16:9
Frame rate mode   : Constant
Frame rate    : 25.000 FPS
Color space    : YUV
Chroma subsampling    : 4:2:0
Bit depth   : 8 bits
Scan type  : Progressive
Bits/(Pixel*Frame)  : 0.087
Stream size  : 905 MiB (97%)
Default   : Yes
Forced   : No

Audio

ID   : 2
Format    : AAC LC
Format/Info   : Advanced Audio Codec Low Complexity
Codec ID    : A_AAC-2
Duration   : 1 h 3 min
Bit rate  : 61.4 kb/s
Channel(s)  : 2 channels
Channel layout   : L R
Sampling rate   : 48.0 kHz
Frame rate    : 46.875 FPS (1024 SPF)
Compression mode   : Lossy
Delay relative to video  : -33 ms
Stream size  : 27.8 MiB (3%)
Default   : Yes
Forced  : No







Share this topic on FacebookShare this topic on GoogleShare this topic on MySpaceShare this topic on TwitterShare this topic on Yahoo




Tags:
 

Related Topics

  Subject / Started by Replies Last post
0 Replies
84 Views
Last post November 12, 2018, 08:56:27 AM
by Vagabond
0 Replies
137 Views
Last post November 15, 2018, 06:58:11 AM
by Vagabond
2 Replies
184 Views
Last post December 01, 2018, 01:34:54 PM
by Pashto Link
0 Replies
137 Views
Last post November 17, 2018, 04:47:10 AM
by Vagabond
0 Replies
82 Views
Last post November 27, 2018, 07:16:53 AM
by Vagabond




Back to top
Z kim ci po drodze | 1x78 Dragon Ball Super | Arlo Pro - 3 Camera System, Work with...