+ ShareSpark.net »  :::: Dubbed Zone (Dubbed English in Hindi) » English Movies Dubbed in Hindi » Animation Movies
|- Boboiboy - The Movie 2016 x264 720p Esub Dual Audio English Hindi [Shahzaib Shah]


TV and Appliances

Boboiboy - The Movie 2016 x264 720p Esub Dual Audio English Hindi [Shahzaib Shah]

0 Members and 1 Guest are viewing this topic.

November 28, 2018, 04:35:47 PM
  • ***************
  • Team SSX
  • Legend Member
  • ***
  • Topic Author
  • Thank You: 1821
  • Reputation: 552
  • Activity:
    100%
  • Country: pk
  • Posts: 1925
  • Topics: 1211
  • Join Date: Mar 2015
  • =$ Success Never Ends $=
Boboiboy - The Movie 2016 x264 720p Esub Dual Audio English Hindi [Shahzaib Shah]












Format : Matroska
Format version : Version 4 / Version 2
File size : 656 MiB
Duration : 1 h 42 min
Overall bit rate : 894 kb/s
Movie name : Boboiboy - The Movie 2016 GOPISAHI

Video
Format : AVC
Format/Info : Advanced Video Codec
Codec ID : V_MPEG4/ISO/AVC
Duration : 1 h 42 min
Bit rate : 699 kb/s
Width : 1 280 pixels
Height : 720 pixels
Display aspect ratio : 16:9
Frame rate mode : Constant
Frame rate : 25.000 FPS
Color space : YUV
Chroma subsampling : 4:2:0
Bit depth : 8 bits
Scan type : Progressive
Bits/(Pixel*Frame) : 0.030
Stream size : 512 MiB (78%)
Title : GOPISAHI
Writing library : x264 core 155 r2901 7d0ff22

Audio #1
Format : AAC
Duration : 1 h 42 min
Bit rate : 96.0 kb/s
Channel(s) : 2 channels
Channel positions : Front: L R
Sampling rate : 48.0 kHz
Frame rate : 46.875 FPS (1024 SPF)
Compression mode : Lossy
Delay relative to video : -21 ms
Stream size : 70.5 MiB (11%)
Title : GOPISAHI
Language : Hindi

Audio #2
Format : AAC
Duration : 1 h 42 min
Bit rate : 96.0 kb/s
Channel(s) : 2 channels
Channel positions : Front: L R
Sampling rate : 48.0 kHz
Frame rate : 46.875 FPS (1024 SPF)
Compression mode : Lossy
Delay relative to video : 31 ms
Stream size : 70.6 MiB (11%)
Title : GOPISAHI
Language : English

Text
Language : English






 :ss:

















 :download:





























Share this topic on FacebookShare this topic on GoogleShare this topic on MySpaceShare this topic on TwitterShare this topic on Yahoo




Tags:
 

Related Topics





Back to top
Format Factory v3.8.0.0. | Adventure | Survivor Season 37 Episode 10 s37e10