+ ShareSpark.net »  :::: Dubbed Zone (Dubbed English in Hindi) » English Movies Dubbed in Hindi » Animation Movies
|- Yugo And Lala 3 2016 x264 720p Dual Audio Hindi Chines [Shahzaib Shah]


10% SBI and 10% Discount

Yugo And Lala 3 2016 x264 720p Dual Audio Hindi Chines [Shahzaib Shah]

0 Members and 1 Guest are viewing this topic.

November 28, 2018, 04:42:59 PM
  • ***************
  • Team SSX
  • Legend Member
  • ***
  • Topic Author
  • Thank You: 1820
  • Reputation: 552
  • Activity:
    100%
  • Country: pk
  • Posts: 1925
  • Topics: 1211
  • Join Date: Mar 2015
  • =$ Success Never Ends $=
Yugo And Lala 3 2016 x264 720p Dual Audio Hindi Chines [Shahzaib Shah]











Format : Matroska
Format version : Version 4 / Version 2
File size : 542 MiB
Duration : 1 h 24 min
Overall bit rate : 894 kb/s
Movie name : Yugo And Lala 3 2016 [Shahzaib Shah]

Video
Format : AVC
Format/Info : Advanced Video Codec
Duration : 1 h 24 min
Bit rate : 699 kb/s
Width : 1 280 pixels
Height : 720 pixels
Display aspect ratio : 16:9
Frame rate mode : Constant
Frame rate : 25.000 FPS
Color space : YUV
Chroma subsampling : 4:2:0
Bit depth : 8 bits
Scan type : Progressive
Bits/(Pixel*Frame) : 0.030
Stream size : 424 MiB (78%)
Title : [Shahzaib Shah]
Writing library : x264 core 155 r2901 7d0ff22

Audio #1
Format : AAC
Duration : 1 h 24 min
Bit rate : 96.0 kb/s
Channel(s) : 2 channels
Channel positions : Front: L R
Sampling rate : 48.0 kHz
Frame rate : 46.875 FPS (1024 SPF)
Compression mode : Lossy
Delay relative to video : -21 ms
Stream size : 58.3 MiB (11%)
Title : [Shahzaib Shah]
Language : Hindi

Audio #2
Format : AAC
Duration : 1 h 24 min
Bit rate : 96.0 kb/s
Channel(s) : 2 channels
Channel positions : Front: L R
Sampling rate : 48.0 kHz
Frame rate : 46.875 FPS (1024 SPF)
Compression mode : Lossy
Delay relative to video : -21 ms
Stream size : 58.4 MiB (11%)
Title : [Shahzaib Shah]
Language : Chinese





 :ss:














 :download:





























Share this topic on FacebookShare this topic on GoogleShare this topic on MySpaceShare this topic on TwitterShare this topic on Yahoo




Tags:
 

Related Topics





Back to top
Slender Man (2018) | Saint Seiya | Talk Hero