+ ShareSpark.net »  :::: Bollywood Zone » Indian TV Shows
|- MY DAD THINKS HE'S FUNNY (2016) 1080P AMZN WEB-DL ESUB - DTONE


10% SBI and 10% Discount

MY DAD THINKS HE'S FUNNY (2016) 1080P AMZN WEB-DL ESUB - DTONE

0 Members and 1 Guest are viewing this topic.

November 30, 2018, 07:38:58 AM
  • *****************
  • Head Admin
  • Legend Member
  • *****
  • Topic Author
  • Thank You: 6878
  • Reputation: 2993
  • Activity:
    86.8%
  • Country: in
  • Posts: 19037
  • Topics: 11071
  • Join Date: Mar 2012
  • The Time Is Now......




General
Complete name                            : My Dad Thinks He's Funny (2016) 1080p AMZN WEB-DL ESub - DTOne.mkv
Format                                   : Matroska
Format version                           : Version 4 / Version 2
File size                                : 3.54 GiB
Duration                                 : 1 h 2 min
Overall bit rate                         : 8 071 kb/s
Encoded date                             : UTC 2018-11-29 07:34:27
Writing application                      : mkvmerge v28.2.0 ('The Awakening') 64-bit
Writing library                          : libebml v1.3.6 + libmatroska v1.4.9

Video
ID                                       : 1
Format                                   : AVC
Format/Info                              : Advanced Video Codec
Format profile                           : [email protected]
Format settings                          : CABAC / 4 Ref Frames
Format settings, CABAC                   : Yes
Format settings, RefFrames               : 4 frames
Codec ID                                 : V_MPEG4/ISO/AVC
Duration                                 : 1 h 2 min
Bit rate                                 : 7 429 kb/s
Width                                    : 1 920 pixels
Height                                   : 1 080 pixels
Display aspect ratio                     : 16:9
Frame rate mode                          : Constant
Frame rate                               : 25.000 FPS
Color space                              : YUV
Chroma subsampling                       : 4:2:0
Bit depth                                : 8 bits
Scan type                                : Progressive
Bits/(Pixel*Frame)                       : 0.143
Stream size                              : 3.26 GiB (92%)
Default                                  : Yes
Forced                                   : No
Color range                              : Limited
Color primaries                          : BT.709
Transfer characteristics                 : BT.709
Matrix coefficients                      : BT.709

Audio
ID                                       : 2
Format                                   : E-AC-3
Format/Info                              : Enhanced Audio Coding 3
Codec ID                                 : A_EAC3
Duration                                 : 1 h 2 min
Bit rate mode                            : Constant
Bit rate                                 : 640 kb/s
Channel(s)                               : 6 channels
Channel positions                        : Front: L C R, Side: L R, LFE
Sampling rate                            : 48.0 kHz
Frame rate                               : 187.500 FPS (256 SPF)
Compression mode                         : Lossy
Stream size                              : 288 MiB (8%)
Title                                    : English
Language                                 : English
Service kind                             : Complete Main
Default                                  : Yes
Forced                                   : No

Text
ID                                       : 3
Format                                   : UTF-8
Codec ID                                 : S_TEXT/UTF8
Codec ID/Info                            : UTF-8 Plain Text
Duration                                 : 1 h 0 min
Bit rate                                 : 116 b/s
Count of elements                        : 1440
Stream size                              : 51.7 KiB (0%)
Title                                    : English [Full]
Language                                 : English
Default                                  : Yes
Forced                                   : No








































Share this topic on FacebookShare this topic on GoogleShare this topic on MySpaceShare this topic on TwitterShare this topic on Yahoo




Tags:
 

Related Topics





Back to top
Rap Funk et Hip-Hop | Eps16 Ancient Aliens - Season 12 (2017) | ромик рамазян 2016 Mp3